sencorisabfiminnugabalabira.co

will not begin speak this..

Skip to content

Category: DEFAULT

Gasoline Alley - Elite Force - No Turning Back (File, MP3, Album)

About the author

Comments

  1. No Turning Back by Elite Force, released 01 January 1. 01 (FiveSixNine) 2. 02 No Turning Back 3. Electronica, Techno, - 03 Krushyn 4 4. 04 Less Than Zero 5. 05 Weekend Whiplash 6. 06 Sky2Small 7. 07 Gasoline Alley 8. 08 Ring Of Fire 9. 09 Vapour Eyes 10 Vapour Trail 11 Punk Electro 12 Transmission 13 Haiku This was the first Elite Force album and originally .
  2. Discover releases, reviews, credits, songs, and more about Elite Force - No Turning Back at Discogs. Complete your Elite Force collection/5(7).
  3. Filename E:uploadsFLACElite Force - No Turning Back7 - Gasoline sencorisabfiminnugabalabira.co Peak level % Track quality % Test CRC AF8E3DC2 Copy CRC AF8E3DC2 Track not present in AccurateRip database Copy OK Track 8 Filename E:uploadsFLACElite Force - No Turning Back8 - Ring Of sencorisabfiminnugabalabira.co Peak level % Track quality % Test CRC B3E8AB1B.
  4. Aug 15,  · Gasoline Alley By Elite Force. • 1 song, Gasoline Alley. Featured on No Turning Back. More by Elite Force. The Singles Collection, Pt. 2 ( - ) The Singles Collection - Pt. 1 ( - ) Shockland. Revamped. Modern Primitive. More Elite Force. Listen to Elite Force now. Listen to Elite Force in full in the Music Duration: 5 min.
  5. Gasoline Alley follows the same formula of Rod Stewart's first album, intercutting contemporary covers with slightly older rock & roll and folk classics and originals written in the same vein. The difference is in execution. Stewart sounds more confident, claiming Elton John's "Country Comfort," the Small Faces' "My Way of Giving," and the Rolling Stones' version of "It's All Over Now" with a.
  6. Filename E:\uploads\FLAC\Elite Force - No Turning Back\07 - Gasoline sencorisabfiminnugabalabira.co Peak level % Track quality % Test CRC AF8E3DC2 Copy CRC AF8E3DC2 Track not present in AccurateRip database Copy OK Track 8 Filename E:\uploads\FLAC\Elite Force - No Turning Back\08 - Ring Of sencorisabfiminnugabalabira.co Peak level % Track quality % Test CRC B3E8AB1B.
  7. Download Elite Force songs, singles and albums on MP3. Over one million legal MP3 tracks available at Juno Download. Elite Force Gasoline Alley (dub mix - Remaster) - () while Hedflux's mix of Elite Force's "No Turning Back" is a straight-line builder of the highest order. Dylan Rhymes sets a match underneath Loops of Fury's.

Leave a Reply

Your email address will not be published. Required fields are marked *